Advice 1: How to burn a disc with copy protection

On the issue of data protection work all modern manufacturers of drives with different content: video and music, games and software. If the launched program can be set to request the license key, the "passive" contents of music and videodiscs must be protected from copying.
How to burn a disc with copy protection
You will need
  • - Internet;
  • - program CDRWin.
Instruction
1
Download and install burning software discs CDRWin version 3.6 or later. Can be found on the website of the programs softodrom.ru or soft.ru. Run the program on a personal computer. As a rule, after the installation icon appears on your desktop. First, you need to copy the data disk that you plan to do with protection from copying.
2
Insert the data disc in the drive. Using commands on the main menu and make a disk image, saving it to the hard drive. In the menu choose Record Disc option Load Cuesheet. Find the lower setting Total Disc Time (for example, 44:03:52) and remember it.
3
Create a false entry in the CUE description file with any text editor (a Notepad). To do this, add the CUE file строкиTRACK 01 MODE [....]INDEX 01 00:00:00Поменяйте numbered the tracks according to the contents of your file, putting the MODE the same as in the other records.
4
Adjust the total size of the disk time Total Disc Time, subtract two seconds. Now the last entry looks like:TRACK 02 MODE [....]INDEX 01 44:01:52
5
Check that the start time of the new track was still 44:03:52, to avoid crossing data. To do this, click Record Disc, the Disc Layout paragraph. Write on a blank optical disc data containing two tracks.
6
Sorry, for protection exists (or will exist) a way of hacking. For example, this method will not work for program Nero Burning Rom — that is, the user will copy the disc using this program if it use the same actuator. You can also store data by using special software that encrypts all content, regardless of the content, and put passwords on open files.

Advice 2 : How to remove the protection from the file

In some cases, you may need the security settings of the file, and in some cases, its withdrawal. It can be the banal reason of the loss of the password from the protected file to the desire to use the information to which access is restricted. Without an analysis of the legality of your actions, here are some ways how to remove protection from the file.
documents protected
Instruction
1
Way to unprotect the file depends on the type of the given file. If you installed the protection from editing in Excel or Word file, then the easiest way is by opening the file, move all the contents to a new file and save under a different name. The new file thus created will be available for editing.
2
To remove protection from PDF files with the help of on-line services, located at: http://pdfpirate.org/ or http://www.freemypdf.com/. According to the developers, their product is able to remove any protection from the files in the specified format.
3
If there is a need to remove protection from the files stored on a flash card, look carefully at the media. Perhaps on the card itself there is a switch governing the limits of work with a flash drive. Move this switch and try to open the file.
4
If such a switch is no or it fails to remove the protection, probably made an incorrect shutdown of the flash drive or crashes when files are recorded. In this case, it may require drastic measures, including formatting.

Advice 3 : How to burn a disc with copy protection

On the issue of data protection work all modern manufacturers of drives with different content: video and music, games and software. If the launched program can be set to request the license key, the "passive" contents of music and videodiscs must be protected from copying.
How to burn a disc with copy protection
You will need
  • - Internet;
  • - program CDRWin.
Instruction
1
Download and install burning software discs CDRWin version 3.6 or later. Can be found on the website of the programs softodrom.ru or soft.ru. Run the program on a personal computer. As a rule, after the installation icon appears on your desktop. First, you need to copy the data disk that you plan to do with protection from copying.
2
Insert the data disc in the drive. Using commands on the main menu and make a disk image, saving it to the hard drive. In the menu choose Record Disc option Load Cuesheet. Find the lower setting Total Disc Time (for example, 44:03:52) and remember it.
3
Create a false entry in the CUE description file with any text editor (a Notepad). To do this, add the CUE file строкиTRACK 01 MODE [....]INDEX 01 00:00:00Поменяйте numbered the tracks according to the contents of your file, putting the MODE the same as in the other records.
4
Adjust the total size of the disk time Total Disc Time, subtract two seconds. Now the last entry looks like:TRACK 02 MODE [....]INDEX 01 44:01:52
5
Check that the start time of the new track was still 44:03:52, to avoid crossing data. To do this, click Record Disc, the Disc Layout paragraph. Write on a blank optical disc data containing two tracks.
6
Sorry, for protection exists (or will exist) a way of hacking. For example, this method will not work for program Nero Burning Rom — that is, the user will copy the disc using this program if it use the same actuator. You can also store data by using special software that encrypts all content, regardless of the content, and put passwords on open files.

Advice 4 : How to highlight text on the website

Modern browsers allow you to highlight text character by character, line by line or whole, and then copy to the clipboard. The results of such a copy can then be placed in the input form on other pages, and in documents that are processed by text editors.
How to highlight text on the website
Instruction
1
In all browsers for desktop computers, the selection of text is done the same way. To highlight the section, use the mouse. Move the cursor to the beginning of the fragment click the left button, then hold the button, move the cursor to the end of the fragment. A sign that the characters selected, will be to change the background color around them and sometimes themselves. Color they will be painted, depend on the settings of the graphical interface of the operating system.
2
You can also select all the text on the page. To do this, press on the keyboard Ctrl-A (the letter A in Latin) or select the menu item "edit" - "Select all" (it can also be called "Select all"). In the text input field can be selected by moving the cursor to the beginning of the fragment, by pressing Shift, and then hold it with the arrow keys moving the cursor to the end point and release Shift. In such fields you can also use the above key combination Ctrl-A.
3
In mobile phones the text selection is in a slightly different way. In some platforms, for example, Series 40, it is not provided at all. In Series 60 to select text only in the input field. To do this, move the cursor to the beginning of the fragment, and then select it in the way stated above, with the only difference that instead of the Shift key have to use the button with the icon of a pencil. Some smartfonov on the Series 60 platform features a alphabetic keyboard. Such devices are equipped with two arrow keys pointing up and they are analogues of the Shift keys on keyboards of computers. If your telephone has the control key, you can use it to input Ctrl-A.
4
Highlighting parts of the text in the input field and the page can be carried out only by means of third-party browsers, for example, new versions of UC and Opera Mini. In the first use the menu item "Tools" - "Copy" - "Free COP.", and the second, press 1, and then to specify the beginning and end of a snippet, follow the prompts that will appear on the phone screen. In both cases, the selection will be immediately placed in the clipboard (if we are talking about a Java application, it will buffer the program itself, not the phone).
5
In all other cases, on both the computer and the telephone, the selected text should be copied to the clipboard manually. To do this, when using the computer or smart phone with an alphabetic keyboard, press Ctrl-C (the letter C - Latin). At the device Series 60 digital keyboard, click the pencil, hold it a second, and then at the bottom of the screen a tooltip appears. Poekranno press the key on which is written "Copy". And to insert the snippet into the editor or input box, press Ctrl-V or press the pencil in combination with podarennoe button above that says "Insert".
Note
Do not use the clipboard for the purposes of plagiarism and unauthorized copying.
Is the advice useful?
Search